It is currently Fri Jan 19, 2018 3:25 am Advanced search

uploadGIG.com Premium
Download Fortune | DDLPal Downloads | Crack Download | Download Serial | Warez Download | Warez Download | Download Serial | Download Warez | WarezKeeper | Download Serial Crack | Download File Crack | Full Downloads

Paisa Vasool (2017) Telugu - 720p - HDRip - x264 - AAC-TMV

Download all the latest Movies, all in high quality (BluRay, HD, Dvdrip, TS, R5 ... etc).

Paisa Vasool (2017) Telugu - 720p - HDRip - x264 - AAC-TMV

Postby wroser » Sun Jan 14, 2018 1:54 am

Image




Code: Select all
General
Format                      : Matroska
Format version              : Version 4 / Version 2
File size                   : 1.36 GiB
Duration                    : 2 h 12 min
Overall bit rate            : 1 470 kb/s
Encoded date                : UTC 2018-01-11 21:48:32
Writing application         : mkvmerge v7.1.0 ('Good Love') 32bit built on Jul 27 2014 12:59:18
Writing library             : libebml v1.3.0 + libmatroska v1.4.1

Video
ID                          : 1
Format                      : AVC
Format/Info                 : Advanced Video Codec
Format profile              : [email protected]
Format settings, CABAC      : Yes
Format settings, RefFrames  : 4 frames
Codec ID                    : V_MPEG4/ISO/AVC
Duration                    : 2 h 12 min
Bit rate                    : 1 341 kb/s
Width                       : 1 280 pixels
Height                      : 544 pixels
Display aspect ratio        : 2.35:1
Frame rate mode             : Constant
Frame rate                  : 25.000 FPS
Color space                 : YUV
Chroma subsampling          : 4:2:0
Bit depth                   : 8 bits
Scan type                   : Progressive
Bits/(Pixel*Frame)          : 0.077
Stream size                 : 1.24 GiB (91%)
Writing library             : x264 core 112
Encoding settings           : cabac=1 / ref=2 / deblock=1:0:0 / analyse=0x1:0x111 / me=hex / subme=6 / psy=1 / psy_rd=1.00:0.00 / mixed_ref=0 / me_range=16 / chroma_me=1 / trellis=0 / 8x8dct=0 / cqm=0 / deadzone=21,11 / fast_pskip=1 / chroma_qp_offset=-2 / threads=12 / sliced_threads=0 / nr=0 / decimate=1 / interlaced=0 / constrained_intra=0 / bframes=2 / b_pyramid=2 / b_adapt=1 / b_bias=0 / direct=1 / weightb=0 / open_gop=0 / weightp=2 / keyint=250 / keyint_min=24 / scenecut=40 / intra_refresh=0 / rc_lookahead=40 / rc=abr / mbtree=1 / bitrate=1341 / ratetol=1.0 / qcomp=0.60 / qpmin=3 / qpmax=51 / qpstep=4 / ip_ratio=1.40 / aq=1:1.00
Language                    : Telugu
Default                     : Yes
Forced                      : No
Color range                 : Limited
Color primaries             : BT.709
Transfer characteristics    : BT.709
Matrix coefficients         : BT.709

Audio
ID                          : 2
Format                      : AAC
Format/Info                 : Advanced Audio Codec
Format profile              : LC
Codec ID                    : A_AAC
Duration                    : 2 h 12 min
Bit rate                    : 128 kb/s
Channel(s)                  : 2 channels
Channel positions           : Front: L R
Sampling rate               : 48.0 kHz
Frame rate                  : 46.875 FPS (1024 SPF)
Compression mode            : Lossy
Stream size                 : 121 MiB (9%)
Language                    : Telugu
Default                     : Yes
Forced                      : No



ImageImageImageImage

SINGLE DIRECT FAST LINKS

Code: Select all
http://www.heroupload.com/114916f967cdf2c0/Paisa.Vasool.2017.Telugu.HDRip.720p.x264.AAC-TMV.mkv


Code: Select all
http://filefloater.com/4dy/Paisa.Vasool.2017.Telugu.HDRip.720p.x264.AAC-TMV.mkv
wroser
Warez Senior
Warez Senior
 
Posts: 1131
Joined: Sun Jun 03, 2012 7:28 pm

Return to Movies

Who is online

Users browsing this forum: Bing [Bot], Yahoo [Bot] and 6 guests