It is currently Sun Jun 24, 2018 10:19 pm Advanced search

uploadGIG.com Premium
Download Fortune | DDLPal Downloads | Crack Download | Download Serial | Warez Download | Warez Download | Download Serial | Download Warez | WarezKeeper | Download Serial Crack | Download File Crack | Full Downloads

Jai Simha (2018) Telugu - 1080p - PreDVDRip - x264 - MP3-TMV

Download all the latest Movies, all in high quality (BluRay, HD, Dvdrip, TS, R5 ... etc).

Jai Simha (2018) Telugu - 1080p - PreDVDRip - x264 - MP3-TMV

Postby wroser » Sun Jan 14, 2018 2:26 am

Image




Code: Select all
General
Format                      : Matroska
Format version              : Version 4 / Version 2
File size                   : 2.46 GiB
Duration                    : 2 h 34 min
Overall bit rate            : 2 282 kb/s
Encoded date                : UTC 2018-01-13 02:50:54
Writing application         : mkvmerge v7.1.0 ('Good Love') 32bit built on Jul 27 2014 12:59:18
Writing library             : libebml v1.3.0 + libmatroska v1.4.1

Video
ID                          : 1
Format                      : AVC
Format/Info                 : Advanced Video Codec
Format profile              : [email protected]
Format settings, CABAC      : Yes
Format settings, RefFrames  : 4 frames
Codec ID                    : V_MPEG4/ISO/AVC
Duration                    : 2 h 34 min
Bit rate                    : 2 184 kb/s
Width                       : 1 920 pixels
Height                      : 816 pixels
Display aspect ratio        : 2.35:1
Frame rate mode             : Constant
Frame rate                  : 24.000 FPS
Color space                 : YUV
Chroma subsampling          : 4:2:0
Bit depth                   : 8 bits
Scan type                   : Progressive
Bits/(Pixel*Frame)          : 0.058
Stream size                 : 2.35 GiB (96%)
Writing library             : x264 core 152 r2851 ba24899
Encoding settings           : cabac=1 / ref=3 / deblock=1:0:0 / analyse=0x3:0x113 / me=hex / subme=7 / psy=1 / psy_rd=1.00:0.00 / mixed_ref=1 / me_range=16 / chroma_me=1 / trellis=1 / 8x8dct=1 / cqm=0 / deadzone=21,11 / fast_pskip=1 / chroma_qp_offset=-2 / threads=25 / lookahead_threads=4 / sliced_threads=0 / nr=0 / decimate=1 / interlaced=0 / bluray_compat=0 / constrained_intra=0 / bframes=3 / b_pyramid=2 / b_adapt=1 / b_bias=0 / direct=1 / weightb=1 / open_gop=0 / weightp=2 / keyint=240 / keyint_min=24 / scenecut=40 / intra_refresh=0 / rc_lookahead=40 / rc=2pass / mbtree=1 / bitrate=2184 / ratetol=1.0 / qcomp=0.60 / qpmin=0 / qpmax=69 / qpstep=4 / cplxblur=20.0 / qblur=0.5 / ip_ratio=1.40 / aq=1:1.00
Language                    : Telugu
Default                     : Yes
Forced                      : No

Audio
ID                          : 2
Format                      : MPEG Audio
Format version              : Version 1
Format profile              : Layer 3
Mode                        : Joint stereo
Mode extension              : MS Stereo
Codec ID                    : A_MPEG/L3
Codec ID/Hint               : MP3
Duration                    : 2 h 34 min
Bit rate mode               : Constant
Bit rate                    : 96.0 kb/s
Channel(s)                  : 2 channels
Sampling rate               : 44.1 kHz
Frame rate                  : 38.281 FPS (1152 SPF)
Compression mode            : Lossy
Stream size                 : 106 MiB (4%)
Writing library             : LAME3.98
Language                    : Telugu
Default                     : Yes
Forced                      : No



ImageImageImageImageImageImage


SINGLE DIRECT FAST LINKS
Code: Select all
http://www.heroupload.com/7b66d837d8fc4150/Jai.Simha.2018.Telugu.1080p.x264-TMV.mkv


Code: Select all
http://filefloater.com/9qo/Jai.Simha.2018.Telugu.1080p.x264-TMV.mkv

700MB LINKS
Code: Select all
http://www.heroupload.com/23c1104411466a47/Jai.Simha.2018.Telugu.1080p.x264-TMV.part1.rar
http://www.heroupload.com/f2a61bf4b6b79292/Jai.Simha.2018.Telugu.1080p.x264-TMV.part2.rar
http://www.heroupload.com/5c464799313a135c/Jai.Simha.2018.Telugu.1080p.x264-TMV.part3.rar
http://www.heroupload.com/0157e13fc5a7ea6d/Jai.Simha.2018.Telugu.1080p.x264-TMV.part4.rar


Code: Select all
http://filefloater.com/9qr/Jai.Simha.2018.Telugu.1080p.x264-TMV.part1.rar
http://filefloater.com/9qs/Jai.Simha.2018.Telugu.1080p.x264-TMV.part2.rar
http://filefloater.com/9qt/Jai.Simha.2018.Telugu.1080p.x264-TMV.part3.rar
http://filefloater.com/9qu/Jai.Simha.2018.Telugu.1080p.x264-TMV.part4.rar
wroser
Lord Of Warez
Lord Of Warez
 
Posts: 2798
Joined: Sun Jun 03, 2012 7:28 pm

Return to Movies

Who is online

Users browsing this forum: Bing [Bot] and 16 guests