It is currently Sat Oct 20, 2018 9:15 am Advanced search

uploadGIG.com Premium
Download Fortune | DDLPal Downloads | Crack Download | Download Serial | Warez Download | Warez Download | Download Serial | Download Warez | WarezKeeper | Download Serial Crack | Download File Crack | Full Downloads

Kallai FM (2018) Malayalam - 700MB - 1CDRip - DVDRip - x264

Download all the latest Movies, all in high quality (BluRay, HD, Dvdrip, TS, R5 ... etc).

Kallai FM (2018) Malayalam - 700MB - 1CDRip - DVDRip - x264

Postby wroser » Thu Jul 12, 2018 9:54 pm

Image




Code: Select all
Format                      : AVI
Format/Info                 : Audio Video Interleave
File size                   : 708 MiB
Duration                    : 1 h 53 min
Overall bit rate mode       : Variable
Overall bit rate            : 876 kb/s

Video
ID                          : 0
Format                      : MPEG-4 Visual
Format profile              : Advanced [email protected]
Format settings, BVOP       : 2
Format settings, QPel       : No
Format settings, GMC        : No warppoints
Format settings, Matrix     : Default (H.263)
Codec ID                    : XVID
Codec ID/Hint               : XviD
Duration                    : 1 h 53 min
Bit rate                    : 772 kb/s
Width                       : 640 pixels
Height                      : 272 pixels
Display aspect ratio        : 2.35:1
Frame rate                  : 29.970 (30000/1001) FPS
Color space                 : YUV
Chroma subsampling          : 4:2:0
Bit depth                   : 8 bits
Scan type                   : Progressive
Compression mode            : Lossy
Bits/(Pixel*Frame)          : 0.148
Stream size                 : 624 MiB (88%)
Writing library             : XviD 67

Audio
ID                          : 1
Format                      : MPEG Audio
Format version              : Version 1
Format profile              : Layer 3
Mode                        : Joint stereo
Codec ID                    : 55
Codec ID/Hint               : MP3
Duration                    : 1 h 53 min
Bit rate mode               : Variable
Bit rate                    : 90.4 kb/s
Nominal bit rate            : 96.0 kb/s
Channel(s)                  : 2 channels
Sampling rate               : 44.1 kHz
Compression mode            : Lossy
Stream size                 : 73.1 MiB (10%)
Alignment                   : Aligned on interleaves
Interleave, duration        : 26  ms (0.78 video frame)
Interleave, preload duratio : 92  ms
Writing library             : LAME3.99r
Encoding settings           : -m j -V 4 -q 3 -lowpass 15.1 --abr 96



ImageImageImageImageImage


SINGLE DIRECT FAST LINKS

Code: Select all
http://www.heroupload.us/a1b5e27645180c4d/Kallai.FM.2018.Malayalam.DVDRip.XviD.700MB.MP3-TMV.avi


Code: Select all
http://filefloater.com/2zHN/Kallai.FM.2018.Malayalam.DVDRip.XviD.700MB.MP3-TMV.avi



Buy Premium From My Links & Support Me
wroser
Emperor Of Warez
Emperor Of Warez
 
Posts: 3559
Joined: Sun Jun 03, 2012 7:28 pm

Return to Movies

Who is online

Users browsing this forum: Bing [Bot], Cesc0405 and 6 guests