It is currently Mon Jul 23, 2018 4:26 am Advanced search

uploadGIG.com Premium
Download Fortune | DDLPal Downloads | Crack Download | Download Serial | Warez Download | Warez Download | Download Serial | Download Warez | WarezKeeper | Download Serial Crack | Download File Crack | Full Downloads

Sudani from Nigeria (2018) Malayalam - 720p - DVDRip - x264

Download all the latest Movies, all in high quality (BluRay, HD, Dvdrip, TS, R5 ... etc).

Sudani from Nigeria (2018) Malayalam - 720p - DVDRip - x264

Postby wroser » Thu Jul 12, 2018 9:58 pm

Image




Code: Select all
General
Format                      : Matroska
Format version              : Version 4 / Version 2
File size                   : 1.50 GiB
Duration                    : 2 h 1 min
Overall bit rate            : 1 770 kb/s
Encoded date                : UTC 2018-07-12 10:41:25
Writing application         : mkvmerge v7.1.0 ('Good Love') 32bit built on Jul 27 2014 12:59:18
Writing library             : libebml v1.3.0 + libmatroska v1.4.1

Video
ID                          : 1
Format                      : AVC
Format/Info                 : Advanced Video Codec
Format profile              : [email protected]
Format settings, CABAC      : Yes
Format settings, RefFrames  : 4 frames
Codec ID                    : V_MPEG4/ISO/AVC
Duration                    : 2 h 1 min
Bit rate                    : 1 545 kb/s
Width                       : 1 280 pixels
Height                      : 544 pixels
Display aspect ratio        : 2.35:1
Frame rate mode             : Constant
Frame rate                  : 23.976 FPS
Color space                 : YUV
Chroma subsampling          : 4:2:0
Bit depth                   : 8 bits
Scan type                   : Progressive
Bits/(Pixel*Frame)          : 0.093
Stream size                 : 1.31 GiB (87%)
Writing library             : x264 core 155 r2901 7d0ff22
Encoding settings           : cabac=1 / ref=2 / deblock=1:0:0 / analyse=0x1:0x111 / me=hex / subme=6 / psy=1 / psy_rd=1.00:0.00 / mixed_ref=1 / me_range=16 / chroma_me=1 / trellis=1 / 8x8dct=0 / cqm=0 / deadzone=21,11 / fast_pskip=1 / chroma_qp_offset=-2 / threads=12 / lookahead_threads=2 / sliced_threads=0 / nr=0 / decimate=1 / interlaced=0 / bluray_compat=0 / constrained_intra=0 / bframes=3 / b_pyramid=2 / b_adapt=1 / b_bias=0 / direct=1 / weightb=1 / open_gop=0 / weightp=1 / keyint=240 / keyint_min=24 / scenecut=40 / intra_refresh=0 / rc_lookahead=30 / rc=2pass / mbtree=1 / bitrate=1545 / ratetol=1.0 / qcomp=0.60 / qpmin=0 / qpmax=69 / qpstep=4 / cplxblur=20.0 / qblur=0.5 / vbv_maxrate=20000 / vbv_bufsize=25000 / nal_hrd=none / filler=0 / ip_ratio=1.40 / aq=1:1.00
Language                    : Malayalam
Default                     : Yes
Forced                      : No
Color range                 : Limited
Color primaries             : BT.601 NTSC
Transfer characteristics    : BT.709
Matrix coefficients         : BT.601

Audio
ID                          : 2
Format                      : AC-3
Format/Info                 : Audio Coding 3
Format settings, Endianness : Big
Codec ID                    : A_AC3
Duration                    : 2 h 1 min
Bit rate mode               : Constant
Bit rate                    : 224 kb/s
Channel(s)                  : 6 channels
Channel positions           : Front: L C R, Side: L R, LFE
Sampling rate               : 48.0 kHz
Frame rate                  : 31.250 FPS (1536 SPF)
Bit depth                   : 16 bits
Compression mode            : Lossy
Stream size                 : 195 MiB (13%)
Language                    : Malayalam
Service kind                : Complete Main
Default                     : Yes
Forced                      : No

Text
ID                          : 3
Format                      : UTF-8
Codec ID                    : S_TEXT/UTF8
Codec ID/Info               : UTF-8 Plain Text
Duration                    : 1 h 56 min
Bit rate                    : 59 b/s
Count of elements           : 1491
Stream size                 : 50.8 KiB (0%)
Language                    : English
Default                     : Yes
Forced                      : No


ImageImageImageImageImage
SINGLE DIRECT FAST LINKS

Code: Select all
http://www.heroupload.us/57427c0f6ff857e2/Sudani.from.Nigeria.2018.Malayalam.Org.DVDRip.720p.DD5.1.ESub-TMV.mkv


Code: Select all
http://filefloater.com/29H8/Sudani.from.Nigeria.2018.Malayalam.Org.DVDRip.720p.DD5.1.ESub-TMV.mkv




Buy Premium From My Links & Support Me
wroser
Lord Of Warez
Lord Of Warez
 
Posts: 3319
Joined: Sun Jun 03, 2012 7:28 pm

Return to Movies

Who is online

Users browsing this forum: No registered users and 27 guests