It is currently Sat Oct 20, 2018 9:16 am Advanced search

uploadGIG.com Premium
Download Fortune | DDLPal Downloads | Crack Download | Download Serial | Warez Download | Warez Download | Download Serial | Download Warez | WarezKeeper | Download Serial Crack | Download File Crack | Full Downloads

Semma Botha Aagatha (2018) Ultra HD 4K - Untouched - AVC - D

Download all the latest Movies, all in high quality (BluRay, HD, Dvdrip, TS, R5 ... etc).

Semma Botha Aagatha (2018) Ultra HD 4K - Untouched - AVC - D

Postby wroser » Thu Jul 12, 2018 10:24 pm

Image




Code: Select all
General
Format                      : MPEG-4
Codec ID                    : M4V  (isom/avc1/mp42)
File size                   : 5.21 GiB
Duration                    : 2 h 12 min
Overall bit rate mode       : Variable
Overall bit rate            : 5 648 kb/s
Encoded date                : UTC 2018-07-11 14:16:27
Tagged date                 : UTC 2018-07-11 14:16:27

Video
ID                          : 1
Format                      : AVC
Format/Info                 : Advanced Video Codec
Format profile              : [email protected]
Format settings, CABAC      : Yes
Format settings, RefFrames  : 3 frames
Codec ID                    : avc1
Codec ID/Info               : Advanced Video Coding
Duration                    : 2 h 12 min
Bit rate mode               : Constant
Bit rate                    : 5 000 kb/s
Maximum bit rate            : 13.4 Mb/s
Width                       : 3 840 pixels
Height                      : 2 160 pixels
Display aspect ratio        : 16:9
Frame rate mode             : Constant
Frame rate                  : 24.000 FPS
Color space                 : YUV
Chroma subsampling          : 4:2:0
Bit depth                   : 8 bits
Scan type                   : Progressive
Bits/(Pixel*Frame)          : 0.025
Stream size                 : 4.61 GiB (89%)
Encoded date                : UTC 2018-07-11 14:16:27
Tagged date                 : UTC 2018-07-11 14:16:27
Color range                 : Limited
Color primaries             : BT.709
Transfer characteristics    : BT.709
Matrix coefficients         : BT.709

Audio #1
ID                          : 2
Format                      : AAC
Format/Info                 : Advanced Audio Codec
Format profile              : LC
Codec ID                    : 40
Duration                    : 2 h 12 min
Bit rate mode               : Variable
Bit rate                    : 128 kb/s
Maximum bit rate            : 133 kb/s
Channel(s)                  : 2 channels
Channel positions           : Front: L R
Sampling rate               : 48.0 kHz
Frame rate                  : 46.875 FPS (1024 SPF)
Compression mode            : Lossy
Stream size                 : 118 MiB (2%)
Language                    : English
Encoded date                : UTC 2018-07-11 14:16:27
Tagged date                 : UTC 2018-07-11 14:16:27

Audio #2
ID                          : 3
Format                      : AC-3
Format/Info                 : Audio Coding 3
Format settings, Endianness : Big
Codec ID                    : ac-3
Duration                    : 2 h 12 min
Bit rate mode               : Constant
Bit rate                    : 512 kb/s
Channel(s)                  : 6 channels
Channel positions           : Front: L C R, Side: L R, LFE
Sampling rate               : 48.0 kHz
Frame rate                  : 31.250 FPS (1536 SPF)
Bit depth                   : 16 bits
Compression mode            : Lossy
Stream size                 : 484 MiB (9%)
Language                    : English
Service kind                : Complete Main
Encoded date                : UTC 2018-07-11 14:16:27
Tagged date                 : UTC 2018-07-11 14:16:27




ImageImageImageImageImageImage

SINGLE DIRECT FAST LINKS

Code: Select all
http://www.heroupload.us/26878441f1440eb6/Semma.Botha.Aagatha.2018.4K.Untouched.UHD.MP4.ESubs.Tamil-MTR.mp4


1GB LINKS
Code: Select all
http://www.heroupload.us/8f6cd4fcc3dd2735/Semma.Botha.Aagatha.2018.4K.Untouched.UHD.MP4.ESubs.Tamil-MTR.part1.rar
http://www.heroupload.us/ea844d7fbed0d57b/Semma.Botha.Aagatha.2018.4K.Untouched.UHD.MP4.ESubs.Tamil-MTR.part2.rar
http://www.heroupload.us/57784017d4d0b6cf/Semma.Botha.Aagatha.2018.4K.Untouched.UHD.MP4.ESubs.Tamil-MTR.part3.rar
http://www.heroupload.us/fdbb514102495a42/Semma.Botha.Aagatha.2018.4K.Untouched.UHD.MP4.ESubs.Tamil-MTR.part4.rar
http://www.heroupload.us/bf44483a7f607288/Semma.Botha.Aagatha.2018.4K.Untouched.UHD.MP4.ESubs.Tamil-MTR.part5.rar
http://www.heroupload.us/d459e3fb24cb23d3/Semma.Botha.Aagatha.2018.4K.Untouched.UHD.MP4.ESubs.Tamil-MTR.part6.rar
http://www.heroupload.us/abb691350dc1c76f/Semma.Botha.Aagatha.2018.4K.Untouched.UHD.MP4.ESubs.Tamil-MTR.srt


Code: Select all
http://filefloater.com/1JG6/Semma.Botha.Aagatha.2018.4K.Untouched.UHD.MP4.ESubs.Tamil-MTR.part1.rar
http://filefloater.com/1JG7/Semma.Botha.Aagatha.2018.4K.Untouched.UHD.MP4.ESubs.Tamil-MTR.part2.rar
http://filefloater.com/1JG8/Semma.Botha.Aagatha.2018.4K.Untouched.UHD.MP4.ESubs.Tamil-MTR.part3.rar
http://filefloater.com/1JG9/Semma.Botha.Aagatha.2018.4K.Untouched.UHD.MP4.ESubs.Tamil-MTR.part4.rar
http://filefloater.com/29H4/Semma.Botha.Aagatha.2018.4K.Untouched.UHD.MP4.ESubs.Tamil-MTR.part5.rar
http://filefloater.com/29H5/Semma.Botha.Aagatha.2018.4K.Untouched.UHD.MP4.ESubs.Tamil-MTR.part6.rar
http://filefloater.com/29H6/Semma.Botha.Aagatha.2018.4K.Untouched.UHD.MP4.ESubs.Tamil-MTR.srt


Buy Premium From My Links & Support Me
wroser
Emperor Of Warez
Emperor Of Warez
 
Posts: 3559
Joined: Sun Jun 03, 2012 7:28 pm

Return to Movies

Who is online

Users browsing this forum: Bing [Bot], Cesc0405 and 12 guests