It is currently Thu May 24, 2018 6:13 am Advanced search

uploadGIG.com Premium
Download Fortune | DDLPal Downloads | Crack Download | Download Serial | Warez Download | Warez Download | Download Serial | Download Warez | WarezKeeper | Download Serial Crack | Download File Crack | Full Downloads

Zee cine Awards (2018) 1CDRip - SDTV - x264 - AAC-Team Jio E

Download all your latest TV Shows, Tele-Dramas, Tele-Series... etc.

Zee cine Awards (2018) 1CDRip - SDTV - x264 - AAC-Team Jio E

Postby wroser » Mon Jan 01, 2018 2:57 am

Image




Code: Select all
Format                      : MPEG-4
Format profile              : Base Media
Codec ID                    : isom (isom/iso2/avc1/mp41)
File size                   : 722 MiB
Duration                    : 2 h 54 min
Overall bit rate mode       : Variable
Overall bit rate            : 577 kb/s
Writing application         : Lavf56.40.101

Video
ID                          : 1
Format                      : AVC
Format/Info                 : Advanced Video Codec
Format profile              : [email protected]
Format settings             : CABAC / 2 Ref Frames
Format settings, CABAC      : Yes
Format settings, ReFrames   : 2 frames
Codec ID                    : avc1
Codec ID/Info               : Advanced Video Coding
Duration                    : 2 h 54 min
Bit rate mode               : Variable
Bit rate                    : 510 kb/s
Maximum bit rate            : 563 kb/s
Width                       : 640 pixels
Height                      : 360 pixels
Display aspect ratio        : 16:9
Frame rate mode             : Constant
Frame rate                  : 25.000 FPS
Color space                 : YUV
Chroma subsampling          : 4:2:0
Bit depth                   : 8 bits
Scan type                   : Progressive
Bits/(Pixel*Frame)          : 0.088
Stream size                 : 638 MiB (88%)

Audio
ID                          : 2
Format                      : AAC
Format/Info                 : Advanced Audio Codec
Format profile              : LC
Codec ID                    : mp4a-40-2
Duration                    : 2 h 54 min
Bit rate mode               : Constant
Bit rate                    : 61.4 kb/s
Channel(s)                  : 2 channels
Channel positions           : Front: L R
Sampling rate               : 48.0 kHz
Frame rate                  : 46.875 FPS (1024 SPF)
Compression mode            : Lossy
Stream size                 : 76.8 MiB (11%)
Default                     : Yes
Alternate group             : 1




Image
Image
Image
Image
Image
Image
Image
Image

SINGLE DIRECT FAST LINKS

Code: Select all
http://www.heroupload.com/b4f7916bfa3df55f/Zee.cine.Awards.2018.360p.SDTV.AAC.2.0-Team.Jio.Exclusive.mp4


Code: Select all
http://filefloater.com/9ji/Zee.cine.Awards.2018.360p.SDTV.AAC.2.0-Team.Jio.Exclusive.mp4
wroser
Lord Of Warez
Lord Of Warez
 
Posts: 2448
Joined: Sun Jun 03, 2012 7:28 pm

Return to TV Shows

Who is online

Users browsing this forum: Bing [Bot] and 4 guests