It is currently Mon Jul 23, 2018 5:21 pm Advanced search

uploadGIG.com Premium
Download Fortune | DDLPal Downloads | Crack Download | Download Serial | Warez Download | Warez Download | Download Serial | Download Warez | WarezKeeper | Download Serial Crack | Download File Crack | Full Downloads

Zee cine Awards (2018) 720p - HDTV - x264 - AAC-Team Jio Exc

Download all your latest TV Shows, Tele-Dramas, Tele-Series... etc.

Zee cine Awards (2018) 720p - HDTV - x264 - AAC-Team Jio Exc

Postby wroser » Mon Jan 01, 2018 3:01 am

Image




Code: Select all
Format                      : MPEG-4
Format profile              : Base Media
Codec ID                    : isom (isom/iso2/avc1/mp41)
File size                   : 5.71 GiB
Duration                    : 3 h 16 min
Overall bit rate            : 4 161 kb/s
Writing application         : Lavf56.36.100

Video
ID                          : 1
Format                      : AVC
Format/Info                 : Advanced Video Codec
Format profile              : [email protected]
Format settings             : 2 Ref Frames
Format settings, CABAC      : No
Format settings, ReFrames   : 2 frames
Codec ID                    : avc1
Codec ID/Info               : Advanced Video Coding
Duration                    : 3 h 16 min
Bit rate                    : 4 000 kb/s
Width                       : 1 280 pixels
Height                      : 720 pixels
Display aspect ratio        : 16:9
Frame rate mode             : Variable
Frame rate                  : 60.000 FPS
Minimum frame rate          : 18.732 FPS
Maximum frame rate          : 60.000 FPS
Color space                 : YUV
Chroma subsampling          : 4:2:0
Bit depth                   : 8 bits
Scan type                   : Progressive
Bits/(Pixel*Frame)          : 0.072
Stream size                 : 5.51 GiB (97%)


Audio
ID                          : 2
Format                      : AAC
Format/Info                 : Advanced Audio Codec
Format profile              : LC
Codec ID                    : mp4a-40-2
Duration                    : 3 h 16 min
Bit rate mode               : Constant
Bit rate                    : 132 kb/s
Channel(s)                  : 2 channels
Channel(s)_Original         : 6 channels
Channel positions           : Front: L C R, Side: L R, LFE
Sampling rate               : 48.0 kHz
Frame rate                  : 46.875 FPS (1024 SPF)
Compression mode            : Lossy
Stream size                 : 183 MiB (3%)
Default                     : Yes
Alternate group             : 1


ImageImageImageImageImageImageImageImageImageImage

SINGLE DIRECT FAST LINKS

Code: Select all
http://www.heroupload.com/44e0209e582e905f/Zee.cine.Awards.2018.720p.HDTV.AAC.2.0-Team.Jio.Exclusive.mp4


1GB LINKS

Code: Select all
http://www.heroupload.com/13ca40a55757d46b/Zee.cine.Awards.2018.720p.HDTV.AAC.2.0-Team.Jio.Exclusive.part1.rar
http://www.heroupload.com/2db468780dbb54c2/Zee.cine.Awards.2018.720p.HDTV.AAC.2.0-Team.Jio.Exclusive.part2.rar
http://www.heroupload.com/8e0a9f49d2589067/Zee.cine.Awards.2018.720p.HDTV.AAC.2.0-Team.Jio.Exclusive.part3.rar
http://www.heroupload.com/df0540041b84992c/Zee.cine.Awards.2018.720p.HDTV.AAC.2.0-Team.Jio.Exclusive.part4.rar
http://www.heroupload.com/6d1e98dbb70762f5/Zee.cine.Awards.2018.720p.HDTV.AAC.2.0-Team.Jio.Exclusive.part5.rar
http://www.heroupload.com/621ff75b10e65123/Zee.cine.Awards.2018.720p.HDTV.AAC.2.0-Team.Jio.Exclusive.part6.rar


Code: Select all
http://filefloater.com/9jj/Zee.cine.Awards.2018.720p.HDTV.AAC.2.0-Team.Jio.Exclusive.part1.rar
http://filefloater.com/9jk/Zee.cine.Awards.2018.720p.HDTV.AAC.2.0-Team.Jio.Exclusive.part2.rar
http://filefloater.com/9jl/Zee.cine.Awards.2018.720p.HDTV.AAC.2.0-Team.Jio.Exclusive.part3.rar
http://filefloater.com/9jm/Zee.cine.Awards.2018.720p.HDTV.AAC.2.0-Team.Jio.Exclusive.part4.rar
http://filefloater.com/9jn/Zee.cine.Awards.2018.720p.HDTV.AAC.2.0-Team.Jio.Exclusive.part5.rar
http://filefloater.com/9jo/Zee.cine.Awards.2018.720p.HDTV.AAC.2.0-Team.Jio.Exclusive.part6.rar
wroser
Lord Of Warez
Lord Of Warez
 
Posts: 3353
Joined: Sun Jun 03, 2012 7:28 pm

Return to TV Shows

Who is online

Users browsing this forum: No registered users and 5 guests