It is currently Sun Jun 24, 2018 10:22 pm Advanced search

uploadGIG.com Premium
Download Fortune | DDLPal Downloads | Crack Download | Download Serial | Warez Download | Warez Download | Download Serial | Download Warez | WarezKeeper | Download Serial Crack | Download File Crack | Full Downloads

Star Screen Awards (2018) 720p - HDTV - x264 - AAC-Team Jio

Download all your latest TV Shows, Tele-Dramas, Tele-Series... etc.

Star Screen Awards (2018) 720p - HDTV - x264 - AAC-Team Jio

Postby wroser » Mon Jan 01, 2018 3:29 am

Image





Code: Select all
Format                      : MPEG-4
Format profile              : Base Media
Codec ID                    : isom (isom/iso2/avc1/mp41)
File size                   : 2.22 GiB
Duration                    : 2 h 33 min
Overall bit rate mode       : Variable
Overall bit rate            : 2 067 kb/s
Writing application         : Lavf56.40.101

Video
ID                          : 1
Format                      : AVC
Format/Info                 : Advanced Video Codec
Format profile              : [email protected]
Format settings             : CABAC / 1 Ref Frames
Format settings, CABAC      : Yes
Format settings, ReFrames   : 1 frame
Format settings, GOP        : M=1, N=25
Codec ID                    : avc1
Codec ID/Info               : Advanced Video Coding
Duration                    : 2 h 33 min
Bit rate mode               : Constant
Bit rate                    : 2 000 kb/s
Width                       : 1 280 pixels
Height                      : 720 pixels
Display aspect ratio        : 16:9
Frame rate mode             : Constant
Frame rate                  : 25.000 FPS
Color space                 : YUV
Chroma subsampling          : 4:2:0
Bit depth                   : 8 bits
Scan type                   : Progressive
Bits/(Pixel*Frame)          : 0.087
Stream size                 : 2.15 GiB (97%)

Audio
ID                          : 2
Format                      : AAC
Format/Info                 : Advanced Audio Codec
Format profile              : LC
Codec ID                    : mp4a-40-2
Duration                    : 2 h 33 min
Bit rate mode               : Variable
Bit rate                    : 61.4 kb/s
Maximum bit rate            : 63.8 kb/s
Channel(s)                  : 2 channels
Channel positions           : Front: L R
Sampling rate               : 48.0 kHz
Frame rate                  : 46.875 FPS (1024 SPF)
Compression mode            : Lossy
Stream size                 : 67.6 MiB (3%)
Default                     : Yes
Alternate group             : 1



ImageImageImageImageImageImageImageImage


SINGLE DIRECT FAST LINKS
Code: Select all
http://www.heroupload.com/bfc9da76cc6e4b3b/Star.Screen.Awards.2018.Main.event.720p.HDTV.AAC.2.0-Team.Jio.mp4


Code: Select all
http://filefloater.com/9jw/Star.Screen.Awards.2018.Main.event.720p.HDTV.AAC.2.0-Team.Jio.mp4

700MB LINKS

Code: Select all
http://www.heroupload.com/0a14143c8e32108c/Star.Screen.Awards.2018.Main.event.720p.HDTV.AAC.2.0-Team.Jio.part1.rar
http://www.heroupload.com/090307434f6575f2/Star.Screen.Awards.2018.Main.event.720p.HDTV.AAC.2.0-Team.Jio.part2.rar
http://www.heroupload.com/ec3b37878ea1f7a1/Star.Screen.Awards.2018.Main.event.720p.HDTV.AAC.2.0-Team.Jio.part3.rar
http://www.heroupload.com/905395640cdd3afe/Star.Screen.Awards.2018.Main.event.720p.HDTV.AAC.2.0-Team.Jio.part4.rar


Code: Select all
http://filefloater.com/9jx/Star.Screen.Awards.2018.Main.event.720p.HDTV.AAC.2.0-Team.Jio.part1.rar
http://filefloater.com/9jy/Star.Screen.Awards.2018.Main.event.720p.HDTV.AAC.2.0-Team.Jio.part2.rar
http://filefloater.com/9jz/Star.Screen.Awards.2018.Main.event.720p.HDTV.AAC.2.0-Team.Jio.part3.rar
http://filefloater.com/470/Star.Screen.Awards.2018.Main.event.720p.HDTV.AAC.2.0-Team.Jio.part4.rar
wroser
Lord Of Warez
Lord Of Warez
 
Posts: 2798
Joined: Sun Jun 03, 2012 7:28 pm

Return to TV Shows

Who is online

Users browsing this forum: No registered users and 12 guests

cron