It is currently Sat Jun 23, 2018 11:44 pm Advanced search

uploadGIG.com Premium
Download Fortune | DDLPal Downloads | Crack Download | Download Serial | Warez Download | Warez Download | Download Serial | Download Warez | WarezKeeper | Download Serial Crack | Download File Crack | Full Downloads

Smash Hits 6 (2018) 1080p Blu-ray AVC DTS-HDMA 5.1-DDR Exclu

Download all your latest music videos tracks from your favorite artist, genre, movie... etc

Smash Hits 6 (2018) 1080p Blu-ray AVC DTS-HDMA 5.1-DDR Exclu

Postby wroser » Thu Mar 22, 2018 3:25 pm

Image





Code: Select all
Disc Size:      42 283 095 399 bytes
Protection:    AACS
BD-Java:        No
BDInfo:        0.5.4

PLAYLIST REPORT:

Name:                  00000.MPLS
Length:                2:10:20 (h:m:s)
Size:                  41 851 176 960 bytes
Total Bitrate:          42,81 Mbps

VIDEO:

Codec                  Bitrate            Description   
-----                  -------            -----------   
MPEG-4 AVC Video        34914 kbps          1080p / 24 fps / 16:9 / High Profile 4.1

AUDIO:

Codec                          Language        Bitrate        Description   
-----                          --------        -------        -----------   
DTS-HD Master Audio            Hindi          5126 kbps      5.1 / 48 kHz / 5126 kbps / 24-bit (DTS Core: 5.1 / 48 kHz / 1509 kbps / 24-bit)
Dolby Digital Audio            Hindi          640 kbps        5.1 / 48 kHz / 640 kbps

FILES:

Name            Time In        Length          Size            Total Bitrate
----            -------        ------          ----            -------------
00000.M2TS      0:00:00.000    0:03:21.083    1 090 222 080  43 374         
00001.M2TS      0:03:21.083    0:03:29.458    1 048 092 672  40 031         
00002.M2TS      0:06:50.541    0:02:50.833    913 514 496    42 779         
00003.M2TS      0:09:41.375    0:04:18.000    1 384 077 312  42 917         
00004.M2TS      0:13:59.375    0:03:20.416    1 072 201 728  42 799         
00005.M2TS      0:17:19.791    0:02:18.416    739 184 640    42 722         
00006.M2TS      0:19:38.208    0:03:56.666    1 286 627 328  43 492         
00007.M2TS      0:23:34.875    0:02:23.708    770 224 128    42 877         
00008.M2TS      0:25:58.583    0:03:21.125    1 081 626 624  43 023         
00009.M2TS      0:29:19.708    0:02:54.791    929 384 448    42 537         
00010.M2TS      0:32:14.500    0:03:12.291    1 038 655 488  43 212         
00011.M2TS      0:35:26.791    0:05:24.291    1 736 577 024  42 840         
00012.M2TS      0:40:51.083    0:03:30.416    1 126 938 624  42 846         
00013.M2TS      0:44:21.499    0:02:59.125    972 005 376    43 411         
00014.M2TS      0:47:20.624    0:02:34.916    838 742 016    43 313         
00015.M2TS      0:49:55.541    0:03:24.166    1 092 231 168  42 798         
00016.M2TS      0:53:19.708    0:03:36.000    1 150 961 664  42 628         
00017.M2TS      0:56:55.708    0:02:26.625    784 631 808    42 810         
00018.M2TS      0:59:22.333    0:02:20.625    760 897 536    43 287         
00019.M2TS      1:01:42.958    0:02:37.666    851 146 752    43 187         
00020.M2TS      1:04:20.624    0:03:25.333    1 114 454 016  43 420         
00021.M2TS      1:07:45.958    0:02:59.208    958 181 376    42 774         
00022.M2TS      1:10:45.166    0:03:34.458    1 147 330 560  42 799         
00023.M2TS      1:14:19.624    0:03:26.666    1 127 135 232  43 631         
00024.M2TS      1:17:46.291    0:04:17.250    1 371 353 088  42 647         
00025.M2TS      1:22:03.541    0:03:11.375    1 042 599 936  43 584         
00026.M2TS      1:25:14.916    0:03:46.041    1 199 468 544  42 451         
00027.M2TS      1:29:00.958    0:02:14.250    718 903 296    42 840         
00028.M2TS      1:31:15.208    0:03:17.041    1 056 657 408  42 901         
00029.M2TS      1:34:32.250    0:03:37.166    1 156 024 320  42 586         
00030.M2TS      1:38:09.416    0:03:13.958    1 040 007 168  42 896         
00031.M2TS      1:41:23.375    0:02:31.250    822 614 016    43 510         
00032.M2TS      1:43:54.625    0:03:03.291    978 456 576    42 706         
00033.M2TS      1:46:57.916    0:03:44.166    1 198 903 296  42 786         
00034.M2TS      1:50:42.083    0:02:36.708    836 321 280    42 694         
00035.M2TS      1:53:18.791    0:04:05.875    1 310 717 952  42 647         
00036.M2TS      1:57:24.666    0:03:49.541    1 155 188 736  40 261         
00037.M2TS      2:01:14.208    0:03:58.625    1 282 025 472  42 980         
00038.M2TS      2:05:12.833    0:02:31.875    818 540 544    43 117         
00039.M2TS      2:07:44.708    0:02:35.291    848 351 232    43 704         


Image
Image
Image
Image
Image
Image



2GB LINKS
Code: Select all
http://www.heroupload.us/85e1ecf75619bbde/SMASH.HITS.6.2018.BD50-DDR.part01.rar
http://www.heroupload.us/7fe3bb6ec52f1f05/SMASH.HITS.6.2018.BD50-DDR.part02.rar
http://www.heroupload.us/372d610bff430ce6/SMASH.HITS.6.2018.BD50-DDR.part03.rar
http://www.heroupload.us/8f294fbdf16354ea/SMASH.HITS.6.2018.BD50-DDR.part04.rar
http://www.heroupload.us/2b5645b1f5477c1b/SMASH.HITS.6.2018.BD50-DDR.part05.rar
http://www.heroupload.us/f0fe793771335128/SMASH.HITS.6.2018.BD50-DDR.part06.rar
http://www.heroupload.us/6fcc20c38ba26eac/SMASH.HITS.6.2018.BD50-DDR.part07.rar
http://www.heroupload.us/2d4f955e8d3d90c3/SMASH.HITS.6.2018.BD50-DDR.part08.rar
http://www.heroupload.us/f560155430eb14cc/SMASH.HITS.6.2018.BD50-DDR.part09.rar
http://www.heroupload.us/343a3174cc47026a/SMASH.HITS.6.2018.BD50-DDR.part10.rar
http://www.heroupload.us/b7271fcfbfde2698/SMASH.HITS.6.2018.BD50-DDR.part11.rar
http://www.heroupload.us/966df1e14a0fd6e6/SMASH.HITS.6.2018.BD50-DDR.part12.rar
http://www.heroupload.us/87657c58d18b214e/SMASH.HITS.6.2018.BD50-DDR.part13.rar
http://www.heroupload.us/75420566a09fa1ba/SMASH.HITS.6.2018.BD50-DDR.part14.rar
http://www.heroupload.us/2a355451287100c4/SMASH.HITS.6.2018.BD50-DDR.part15.rar
http://www.heroupload.us/9646606760bf4a3a/SMASH.HITS.6.2018.BD50-DDR.part16.rar
http://www.heroupload.us/1be98b319fdfa2db/SMASH.HITS.6.2018.BD50-DDR.part17.rar
http://www.heroupload.us/27e64ef2df454f10/SMASH.HITS.6.2018.BD50-DDR.part18.rar
http://www.heroupload.us/6cdee04e4daca2b7/SMASH.HITS.6.2018.BD50-DDR.part19.rar
http://www.heroupload.us/dfa28773072b6658/SMASH.HITS.6.2018.BD50-DDR.part20.rar


Code: Select all
http://filefloater.com/ack/SMASH.HITS.6.2018.BD50-DDR.part01.rar
http://filefloater.com/acm/SMASH.HITS.6.2018.BD50-DDR.part02.rar
http://filefloater.com/aco/SMASH.HITS.6.2018.BD50-DDR.part03.rar
http://filefloater.com/acq/SMASH.HITS.6.2018.BD50-DDR.part04.rar
http://filefloater.com/acs/SMASH.HITS.6.2018.BD50-DDR.part05.rar
http://filefloater.com/act/SMASH.HITS.6.2018.BD50-DDR.part06.rar
http://filefloater.com/acv/SMASH.HITS.6.2018.BD50-DDR.part07.rar
http://filefloater.com/acx/SMASH.HITS.6.2018.BD50-DDR.part08.rar
http://filefloater.com/acz/SMASH.HITS.6.2018.BD50-DDR.part09.rar
http://filefloater.com/500/SMASH.HITS.6.2018.BD50-DDR.part10.rar
http://filefloater.com/502/SMASH.HITS.6.2018.BD50-DDR.part11.rar
http://filefloater.com/504/SMASH.HITS.6.2018.BD50-DDR.part12.rar
http://filefloater.com/506/SMASH.HITS.6.2018.BD50-DDR.part13.rar
http://filefloater.com/508/SMASH.HITS.6.2018.BD50-DDR.part14.rar
http://filefloater.com/50a/SMASH.HITS.6.2018.BD50-DDR.part15.rar
http://filefloater.com/50c/SMASH.HITS.6.2018.BD50-DDR.part16.rar
http://filefloater.com/50e/SMASH.HITS.6.2018.BD50-DDR.part17.rar
http://filefloater.com/50g/SMASH.HITS.6.2018.BD50-DDR.part18.rar
http://filefloater.com/50i/SMASH.HITS.6.2018.BD50-DDR.part19.rar
http://filefloater.com/50k/SMASH.HITS.6.2018.BD50-DDR.part20.rar
wroser
Lord Of Warez
Lord Of Warez
 
Posts: 2789
Joined: Sun Jun 03, 2012 7:28 pm

Return to Music Videos

Who is online

Users browsing this forum: No registered users and 2 guests