It is currently Sun Jan 21, 2018 2:54 pm Advanced search

uploadGIG.com Premium
Download Fortune | DDLPal Downloads | Crack Download | Download Serial | Warez Download | Warez Download | Download Serial | Download Warez | WarezKeeper | Download Serial Crack | Download File Crack | Full Downloads

Bollywood Webhd 1080p Videos Collection (02) [Hon3yHD]

Download all your latest music videos tracks from your favorite artist, genre, movie... etc

Bollywood Webhd 1080p Videos Collection (02) [Hon3yHD]

Postby @jnabee » Mon Jan 09, 2017 6:18 am

Image


Code: Select all
Video
ID                          : 1
Format                      : AVC
Format/Info                 : Advanced Video Codec
Format profile              : [email protected]
Format settings, CABAC      : Yes
Format settings, ReFrames   : 3 frames
Codec ID                    : V_MPEG4/ISO/AVC
Duration                    : 6mn 27s
Bit rate                    : 4 886 Kbps
Width                       : 1 920 pixels
Height                      : 1 080 pixels
Display aspect ratio        : 16:9
Frame rate mode             : Constant
Frame rate                  : 23.976 (24000/1001) fps
Standard                    : NTSC
Color space                 : YUV
Chroma subsampling          : 4:2:0
Bit depth                   : 8 bits
Scan type                   : Progressive
Bits/(Pixel*Frame)          : 0.098
Stream size                 : 225 MiB (87%)
Default                     : Yes
Forced                      : No
Color range                 : Limited
Color primaries             : BT.709
Transfer characteristics    : BT.709

Audio
ID                          : 2
Format                      : AC-3
Format/Info                 : Audio Coding 3
Mode extension              : CM (complete main)
Format settings, Endianness : Big
Codec ID                    : A_AC3
Duration                    : 6mn 27s
Bit rate mode               : Constant
Bit rate                    : 640 Kbps
Channel(s)                  : 2 channels
Channel positions           : Front: L R
Sampling rate               : 48.0 KHz
Frame rate                  : 31.250 fps (1536 spf)
Compression mode            : Lossy
Stream size                 : 29.5 MiB (11%)
Default                     : Yes
Forced                      : No




Image
Image
Image
Image
Image
Image
Image
Image
Image
Image
Image




Code: Select all
http://kingfiles.net/sw9f2uj2ag2m/DAYYA_DAYYA_RE__Hon3yHD_.mkv
http://kingfiles.net/hj7y3syvqele/DIL_CHURA_LE__Hon3yHD_.mkv
http://kingfiles.net/y00irxdp8pcs/DIL_KA_RISHTA_VOL_02__Hon3yHD_.mp4
http://kingfiles.net/wn4ptc0gb2ef/DIL_KA_RISHTA__Hon3yHD_.mkv
http://kingfiles.net/s7xz4h8831e4/HAAYE_DIL_MERA_DIL__Hon3yHD_.mkv
http://kingfiles.net/4xwl2z8qpw8d/SAAJAN_SAAJAN__Hon3yHD_.mkv




http://kingfiles.net/dpzekc5nksbt/AISA_DEEWANA_HUA__Hon3yHD_.mkv
http://kingfiles.net/pkaeqyyb13eh/GUSHTAAKH_DIL__Hon3yHD_.mkv
http://kingfiles.net/mq1k3b0a5cfd/KUBAKU_MUJHE_TU__Hon3yHD_.mkv
http://kingfiles.net/bxm4hbgrj28a/MAINE_CHUN_LIYA__Hon3yHD_.mkv
http://kingfiles.net/kgdji6sk8ldy/O_MAKHNA_VE__Hon3yHD_.mkv
http://kingfiles.net/tevc0atmfh1e/SHIQWA_BHI_TUMSE_END_CREDIT_WITH_MIXING__Hon3yHD_.mkv
http://kingfiles.net/1wkotlg93z69/SHIQWA_BHI_TUMSE_END_CREDIT__Hon3yHD_.mkv
http://kingfiles.net/zf8u5j9xm2i7/SHIQWA_BHI_TUMSE__Hon3yHD_.mkv



http://kingfiles.net/dqx5pq6ta5uf/BOOM_BOOM__Hon3yHD_.mkv
http://kingfiles.net/11ir8cvf7fy8/DILJALE_MELODY_SONG__Hon3yHD_.mp4
http://kingfiles.net/alnrjft3woh3/EK_BAAT_MAIN_APNE_DIL__Hon3yHD_.mkv
http://kingfiles.net/zqrc0nsaaj8p/HO_NAHI_SAKTA__Hon3yHD_.mkv
http://kingfiles.net/f5d3w34c613k/JISKE_AANE_SE__Hon3yHD_.mkv
http://kingfiles.net/wfvcbryklymm/KUCH_TUM_BEHKO__Hon3yHD_.mkv
http://kingfiles.net/wmhrze663ogx/MERA_MULK_MERA_DESH_FEMALE_SAD__Hon3yHD_.mkv
http://kingfiles.net/zun2f3xmpmoa/MERA_MULK_MERA_DESH__Hon3yHD_.mkv
http://kingfiles.net/e0c97mvxmn9y/MERA_MULK_SAD_VOL_01__Hon3yHD_.mp4
http://kingfiles.net/i9kyn55ilpqz/MERA_MULK_SAD_VOL_02__Hon3yHD_.mp4
http://kingfiles.net/kx6oo7jiw8aa/SHAAM_HAI_DHUAAN__Hon3yHD_.mkv
@jnabee
Warez Senior
Warez Senior
 
Posts: 797
Joined: Thu Sep 06, 2012 3:07 pm

Return to Music Videos

Who is online

Users browsing this forum: No registered users and 2 guests