It is currently Wed Jun 20, 2018 7:39 am Advanced search

uploadGIG.com Premium
Download Fortune | DDLPal Downloads | Crack Download | Download Serial | Warez Download | Warez Download | Download Serial | Download Warez | WarezKeeper | Download Serial Crack | Download File Crack | Full Downloads

Dil Ka Rishta ( 2003 ) Webhd 1080p All Music Videos ( ISRHD

Download all your latest music videos tracks from your favorite artist, genre, movie... etc

Dil Ka Rishta ( 2003 ) Webhd 1080p All Music Videos ( ISRHD

Postby @jnabee » Fri Apr 14, 2017 8:35 pm

[CENTER][url="http://www.keepimg.com/images/Dilkarishta_dvdcover.jpg"]Image[/url][/CENTER]

Code: Select all
Dil Ka Rishta ( 2003 ) Webhd 1080p All Music Videos ( ISRHD )



     Format : MPEG-4
     Format profile : Base Media / Version 2
     Codec ID : mp42
     File size : 278 MiB
     Duration : 4mn 40s
     Overall bit rate : 8 314 Kbps
     Encoded date : UTC 2017-03-26 08:10:27
     Tagged date : UTC 2017-03-26 08:10:47
     TIM : 00:00:00:00
     TSC : 25
     TSZ : 1
  Video #1
     ID : 1
     Format : AVC
     Format/Info : Advanced Video Codec
     Format profile : [email protected]
     Format settings, CABAC : Yes
     Format settings, ReFrames : 3 frames
     Codec ID : avc1
     Codec ID/Info : Advanced Video Coding
     Duration : 4mn 40s
     Bit rate mode : Variable
     Bit rate : 7 994 Kbps
     Width : 1 920 pixels
     Height : 1 080 pixels
     Display aspect ratio : 16:9
     Frame rate mode : Constant
     Frame rate : 25.000 fps
     Standard : PAL
     Resolution : 24 bits
     Colorimetry : 4:2:0
     Scan type : Progressive
     Bits/(Pixel*Frame) : 0.154
     Stream size : 267 MiB (96%)
     Language : English
     Encoded date : UTC 2017-03-26 08:10:27
     Tagged date : UTC 2017-03-26 08:10:27
     colour_primaries : BT.709-5, BT.1361, IEC 61966-2-4, SMPTE RP177
     transfer_characteristics : BT.709-5, BT.1361
     matrix_coefficients : BT.709-5, BT.1361, IEC 61966-2-4 709, SMPTE RP177
  Audio #2
     ID : 2
     Format : AAC
     Format/Info : Advanced Audio Codec
     Format version : Version 4
     Format profile : LC
     Format settings, SBR : No
     Codec ID : 40
     Duration : 4mn 40s
     Bit rate mode : Variable
     Bit rate : 317 Kbps
     Maximum bit rate : 403 Kbps
     Channel(s) : 2 channels
     Channel positions : L R
     Sampling rate : 48.0 KHz
     Resolution : 16 bits
     Stream size : 10.6 MiB (4%)
     Language : English
     Encoded date : UTC 2017-03-26 08:10:27
     Tagged date : UTC 2017-03-26 08:10:27

[CENTER][url="http://www.keepimg.com/images/cca8595b85831a339ac26aa332849c34.png"]Image[/url]
[url="http://www.keepimg.com/images/0e9f0f7045a08d2aa75d2207d36508d8.png"]Image[/url]
[url="http://www.keepimg.com/images/73510b89edfb593942aebfbde16df30c.png"]Image[/url]



Code: Select all
http://katfile.com/u7twvay9l5u3/DAYYA_DAYYA_RE_[Hon3yHD].mp4
http://katfile.com/qkgk4p9wff1n/DIL_CHURA_LE_[Hon3yHD].mp4
http://katfile.com/mg9onobk50nt/DIL_KA_RISHTA_VOL_02_[Hon3yHD].mp4
http://katfile.com/4c84mi6hao33/DIL_KA_RISHTA_[Hon3yHD].mp4
http://katfile.com/fdta8sz7bjz1/HAAYE_DIL_MERA_DIL_[Hon3yHD].mp4
http://katfile.com/42tvedbfg3x7/SAAJAN_SAAJAN_[Hon3yHD].mp4
[/CENTER]
@jnabee
Warez Head
Warez Head
 
Posts: 1218
Joined: Thu Sep 06, 2012 3:07 pm

Return to Music Videos

Who is online

Users browsing this forum: No registered users and 9 guests