It is currently Mon Jul 23, 2018 4:12 am Advanced search

uploadGIG.com Premium
Download Fortune | DDLPal Downloads | Crack Download | Download Serial | Warez Download | Warez Download | Download Serial | Download Warez | WarezKeeper | Download Serial Crack | Download File Crack | Full Downloads

Bollywood Webhd 1080p Videos Collection (02) [Hon3yHD]

Download all your latest music videos tracks from your favorite artist, genre, movie... etc

Bollywood Webhd 1080p Videos Collection (02) [Hon3yHD]

Postby @jnabee » Fri Apr 14, 2017 8:36 pm

[CENTER][url="http://www.keepimg.com/images/e9ce2986086e46c896bdffaa53f41755.png"]"http://www.keepimg.com/images/e9ce2986086e46c896bdffaa53f41755.png"[/url][url="http://www.keepimg.com/images/e9ce2986086e46c896bdffaa53f41755.png"]Image[/url]


Code: Select all
Video
ID                          : 1
Format                      : AVC
Format/Info                 : Advanced Video Codec
Format profile              : [email protected]
Format settings, CABAC      : Yes
Format settings, ReFrames   : 3 frames
Codec ID                    : V_MPEG4/ISO/AVC
Duration                    : 6mn 27s
Bit rate                    : 4 886 Kbps
Width                       : 1 920 pixels
Height                      : 1 080 pixels
Display aspect ratio        : 16:9
Frame rate mode             : Constant
Frame rate                  : 23.976 (24000/1001) fps
Standard                    : NTSC
Color space                 : YUV
Chroma subsampling          : 4:2:0
Bit depth                   : 8 bits
Scan type                   : Progressive
Bits/(Pixel*Frame)          : 0.098
Stream size                 : 225 MiB (87%)
Default                     : Yes
Forced                      : No
Color range                 : Limited
Color primaries             : BT.709
Transfer characteristics    : BT.709

Audio
ID                          : 2
Format                      : AC-3
Format/Info                 : Audio Coding 3
Mode extension              : CM (complete main)
Format settings, Endianness : Big
Codec ID                    : A_AC3
Duration                    : 6mn 27s
Bit rate mode               : Constant
Bit rate                    : 640 Kbps
Channel(s)                  : 2 channels
Channel positions           : Front: L R
Sampling rate               : 48.0 KHz
Frame rate                  : 31.250 fps (1536 spf)
Compression mode            : Lossy
Stream size                 : 29.5 MiB (11%)
Default                     : Yes
Forced                      : No
[url="http://www.keepimg.com/images/N2PyKd.jpg"]"http://www.keepimg.com/images/N2PyKd.jpg"[/url][url="http://www.keepimg.com/images/N2PyKd.jpg"]Image[/url]
[url="http://www.keepimg.com/images/wbKxl0.jpg"]"http://www.keepimg.com/images/wbKxl0.jpg"[/url][url="http://www.keepimg.com/images/wbKxl0.jpg"]Image[/url]
[url="http://www.keepimg.com/images/MntoHZ.jpg"]"http://www.keepimg.com/images/MntoHZ.jpg"[/url][url="http://www.keepimg.com/images/MntoHZ.jpg"]Image[/url]
[url="http://www.keepimg.com/images/7QpekH.jpg"]"http://www.keepimg.com/images/7QpekH.jpg"[/url][url="http://www.keepimg.com/images/7QpekH.jpg"]Image[/url]
[url="http://www.keepimg.com/images/HchQYL.jpg"]"http://www.keepimg.com/images/HchQYL.jpg"[/url][url="http://www.keepimg.com/images/HchQYL.jpg"]Image[/url]
[url="http://www.keepimg.com/images/8MNMon.jpg"]"http://www.keepimg.com/images/8MNMon.jpg"[/url][url="http://www.keepimg.com/images/8MNMon.jpg"]Image[/url]
[url="http://www.keepimg.com/images/Wp2PBe.jpg"]"http://www.keepimg.com/images/Wp2PBe.jpg"[/url][url="http://www.keepimg.com/images/Wp2PBe.jpg"]Image[/url]
[url="http://www.keepimg.com/images/ufu0LM.jpg"]"http://www.keepimg.com/images/ufu0LM.jpg"[/url][url="http://www.keepimg.com/images/ufu0LM.jpg"]Image[/url]
[url="http://www.keepimg.com/images/YFGLQy.jpg"]"http://www.keepimg.com/images/YFGLQy.jpg"[/url][url="http://www.keepimg.com/images/YFGLQy.jpg"]Image[/url]
[url="http://www.keepimg.com/images/OWh475.jpg"]"http://www.keepimg.com/images/OWh475.jpg"[/url][url="http://www.keepimg.com/images/OWh475.jpg"]Image[/url]
[url="http://www.keepimg.com/images/P7QW1N.jpg"]"http://www.keepimg.com/images/P7QW1N.jpg"[/url][url="http://www.keepimg.com/images/P7QW1N.jpg"]Image[/url]




Code: Select all
http://katfile.com/ju80np9jzmwo/DAYYA_DAYYA_RE_[Hon3yHD].mkv
http://katfile.com/t8d5xn2inu8i/DIL_CHURA_LE_[Hon3yHD].mkv
http://katfile.com/8xwg72q1di5g/DIL_KA_RISHTA_VOL_02_[Hon3yHD].mp4
http://katfile.com/vgb7bnd8fg3t/DIL_KA_RISHTA_[Hon3yHD].mkv
http://katfile.com/poc62yfs23n0/HAAYE_DIL_MERA_DIL_[Hon3yHD].mkv
http://katfile.com/opp4h1ywv7c0/SAAJAN_SAAJAN_[Hon3yHD].mkv


http://katfile.com/c1e9fr9bym3i/KUBAKU_MUJHE_TU_[Hon3yHD].mkv
http://katfile.com/umfx99orvcaj/MAINE_CHUN_LIYA_[Hon3yHD].mkv
http://katfile.com/kwfxmna0s7lw/O_MAKHNA_VE_[Hon3yHD].mkv
http://katfile.com/wwlbuwzdzdw4/SHIQWA_BHI_TUMSE_END_CREDIT_WITH_MIXING_[Hon3yHD].mkv
http://katfile.com/2jhox6swkzan/SHIQWA_BHI_TUMSE_END_CREDIT_[Hon3yHD].mkv
http://katfile.com/6p5bwrkwynk8/SHIQWA_BHI_TUMSE_[Hon3yHD].mkv


http://katfile.com/5qk7mlqucvbh/KUCH_TUM_BEHKO_[Hon3yHD].mkv
http://katfile.com/ifa73jlj8ny5/MERA_MULK_MERA_DESH_FEMALE_SAD_[Hon3yHD].mkv
http://katfile.com/nya64kig6se5/MERA_MULK_MERA_DESH_[Hon3yHD].mkv
http://katfile.com/9hhzmqpnac38/MERA_MULK_SAD_VOL_01_[Hon3yHD].mp4
http://katfile.com/o69ua2fw1go3/MERA_MULK_SAD_VOL_02_[Hon3yHD].mp4
http://katfile.com/f4n6yqoy49hu/SHAAM_HAI_DHUAAN_[Hon3yHD].mkv
[/CENTER]
@jnabee
Warez Head
Warez Head
 
Posts: 1395
Joined: Thu Sep 06, 2012 3:07 pm

Return to Music Videos

Who is online

Users browsing this forum: No registered users and 4 guests

cron