It is currently Mon Jul 23, 2018 4:12 am Advanced search

uploadGIG.com Premium
Download Fortune | DDLPal Downloads | Crack Download | Download Serial | Warez Download | Warez Download | Download Serial | Download Warez | WarezKeeper | Download Serial Crack | Download File Crack | Full Downloads

Ajnabee ( 2001 ) Webhd 1080p All Music Videos ( ISRHD )

Download all your latest music videos tracks from your favorite artist, genre, movie... etc

Ajnabee ( 2001 ) Webhd 1080p All Music Videos ( ISRHD )

Postby @jnabee » Fri Apr 14, 2017 8:37 pm

[CENTER][url="http://www.keepimg.com/images/Ajnabee_Soundtrack.png"]Image[/url]

Code: Select all
Ajnabee ( 2001 ) Webhd 1080p All Music Videos ( ISRHD )



     Format : MPEG-4
     Format profile : Base Media / Version 2
     Codec ID : mp42
     File size : 334 MiB
     Duration : 5mn 37s
     Overall bit rate : 8 315 Kbps
     Encoded date : UTC 2017-03-20 20:56:17
     Tagged date : UTC 2017-03-20 20:56:32
     TIM : 00:00:00:00
     TSC : 25
     TSZ : 1
  Video #1
     ID : 1
     Format : AVC
     Format/Info : Advanced Video Codec
     Format profile : [email protected]
     Format settings, CABAC : Yes
     Format settings, ReFrames : 3 frames
     Codec ID : avc1
     Codec ID/Info : Advanced Video Coding
     Duration : 5mn 37s
     Bit rate mode : Variable
     Bit rate : 7 995 Kbps
     Width : 1 920 pixels
     Height : 1 080 pixels
     Display aspect ratio : 16:9
     Frame rate mode : Constant
     Frame rate : 25.000 fps
     Standard : PAL
     Resolution : 24 bits
     Colorimetry : 4:2:0
     Scan type : Progressive
     Bits/(Pixel*Frame) : 0.154
     Stream size : 321 MiB (96%)
     Language : English
     Encoded date : UTC 2017-03-20 20:56:17
     Tagged date : UTC 2017-03-20 20:56:17
     colour_primaries : BT.709-5, BT.1361, IEC 61966-2-4, SMPTE RP177
     transfer_characteristics : BT.709-5, BT.1361
     matrix_coefficients : BT.709-5, BT.1361, IEC 61966-2-4 709, SMPTE RP177
  Audio #2
     ID : 2
     Format : AAC
     Format/Info : Advanced Audio Codec
     Format version : Version 4
     Format profile : LC
     Format settings, SBR : No
     Codec ID : 40
     Duration : 5mn 37s
     Bit rate mode : Variable
     Bit rate : 317 Kbps
     Maximum bit rate : 406 Kbps
     Channel(s) : 2 channels
     Channel positions : L R
     Sampling rate : 48.0 KHz
     Resolution : 16 bits
     Stream size : 12.8 MiB (4%)
     Language : English
     Encoded date : UTC 2017-03-20 20:56:17
     Tagged date : UTC 2017-03-20 20:56:17

[url="http://www.keepimg.com/images/bc8b58dac5d0314d4cd4fd1cbeea3356.png"]Image[/url]
[url="http://www.keepimg.com/images/ba2a388021bf9e46fad6062b328a0953.png"]Image[/url]
[url="http://www.keepimg.com/images/ea75a3ec6b20248073fafdbfffb9bb09.png"]Image[/url]


Code: Select all
http://katfile.com/uvj8602e5mck/JAB_TUMHE_AASHIQUI_[Hon3yHD].mp4
http://katfile.com/72za4f85gjj5/KASAM_SE_TERI_AANKHEIN_[Hon3yHD].mp4
http://katfile.com/et68g7jthgi3/KAUN_MAIN_HAAN_TUM_[Hon3yHD].mp4
http://katfile.com/md4e8v03ib7l/MEHBOOBA_MEHBOOBA_[Hon3yHD].mp4
http://katfile.com/9qj58smnoyxq/MERI_ZINDAGI_MEIN_[Hon3yHD].mp4
http://katfile.com/c5p3htekg7zv/MOHABBAT_NAAM_HAI_[Hon3yHD].mp4
[/CENTER]
@jnabee
Warez Head
Warez Head
 
Posts: 1395
Joined: Thu Sep 06, 2012 3:07 pm

Return to Music Videos

Who is online

Users browsing this forum: No registered users and 6 guests

cron