It is currently Sat Oct 20, 2018 9:16 am Advanced search

uploadGIG.com Premium
Download Fortune | DDLPal Downloads | Crack Download | Download Serial | Warez Download | Warez Download | Download Serial | Download Warez | WarezKeeper | Download Serial Crack | Download File Crack | Full Downloads

Hits Of Lata Vol-1 (2018) 1080p Blu-ray AVC TrueHD 5.1-DDR E

Download all your latest music videos tracks from your favorite artist, genre, movie... etc

Hits Of Lata Vol-1 (2018) 1080p Blu-ray AVC TrueHD 5.1-DDR E

Postby wroser » Thu Mar 22, 2018 3:16 pm

Image






Code: Select all
Disc Size:      49 757 835 759 bytes
Protection:    AACS
BD-Java:        No
BDInfo:        0.5.4

PLAYLIST REPORT:

Name:                  00045.MPLS
Length:                3:50:31 (h:m:s)
Size:                  49 139 441 664 bytes
Total Bitrate:          28,42 Mbps

VIDEO:

Codec                  Bitrate            Description   
-----                  -------            -----------   
MPEG-4 AVC Video        23070 kbps          1080p / 24 fps / 16:9 / High Profile 4.1

AUDIO:

Codec                          Language        Bitrate        Description   
-----                          --------        -------        -----------   
Dolby TrueHD Audio              English        2090 kbps      5.1 / 48 kHz / 2090 kbps / 16-bit (AC3 Embedded: 5.1 / 48 kHz / 640 kbps)

FILES:

Name            Time In        Length          Size            Total Bitrate
----            -------        ------          ----            -------------
00000.M2TS      0:00:00.000    0:04:13.750    903 180 288    28 475         
00001.M2TS      0:04:13.750    0:04:58.500    1 058 199 552  28 360         
00002.M2TS      0:09:12.250    0:03:12.041    682 266 624    28 422         
00003.M2TS      0:12:24.291    0:04:03.833    830 121 984    27 236         
00004.M2TS      0:16:28.125    0:05:09.166    1 083 482 112  28 036         
00005.M2TS      0:21:37.291    0:05:15.666    1 242 587 136  31 491         
00006.M2TS      0:26:52.958    0:05:20.083    1 126 109 184  28 145         
00045.M2TS      0:32:13.041    0:04:09.708    888 502 272    28 465         
00007.M2TS      0:36:22.750    0:09:07.125    1 948 385 280  28 489         
00008.M2TS      0:45:29.875    0:04:48.083    1 023 608 832  28 425         
00009.M2TS      0:50:17.958    0:04:27.750    952 246 272    28 452         
00010.M2TS      0:54:45.708    0:03:59.166    850 507 776    28 449         
00011.M2TS      0:58:44.875    0:04:46.375    991 088 640    27 686         
00012.M2TS      1:03:31.250    0:06:25.583    1 372 846 080  28 484         
00013.M2TS      1:09:56.833    0:05:01.250    1 069 363 200  28 398         
00014.M2TS      1:14:58.083    0:07:34.625    1 609 144 320  28 316         
00015.M2TS      1:22:32.708    0:07:04.125    1 489 901 568  28 103         
00016.M2TS      1:29:36.833    0:03:49.833    816 408 576    28 417         
00017.M2TS      1:33:26.666    0:07:05.041    1 512 923 136  28 476         
00018.M2TS      1:40:31.708    0:07:34.541    1 617 715 200  28 472         
00019.M2TS      1:48:06.250    0:04:35.125    978 223 104    28 444         
00020.M2TS      1:52:41.375    0:04:47.458    1 020 327 936  28 396         
00021.M2TS      1:57:28.833    0:05:14.833    1 119 700 992  28 452         
00022.M2TS      2:02:43.666    0:04:14.083    904 083 456    28 466         
00023.M2TS      2:06:57.749    0:04:04.208    868 638 720    28 456         
00024.M2TS      2:11:01.958    0:04:44.250    1 011 290 112  28 462         
00025.M2TS      2:15:46.208    0:06:28.416    1 382 301 696  28 470         
00026.M2TS      2:22:14.624    0:04:33.708    973 608 960    28 457         
00027.M2TS      2:26:48.333    0:03:35.750    763 865 088    28 324         
00028.M2TS      2:30:24.083    0:02:56.250    627 431 424    28 479         
00029.M2TS      2:33:20.333    0:06:30.333    1 375 395 840  28 189         
00030.M2TS      2:39:50.666    0:04:16.708    912 998 400    28 452         
00031.M2TS      2:44:07.375    0:03:52.791    786 843 648    27 040         
00032.M2TS      2:48:00.166    0:03:21.250    689 971 200    27 427         
00033.M2TS      2:51:21.416    0:04:19.875    918 626 304    28 279         
00034.M2TS      2:55:41.291    0:04:59.333    1 044 043 776  27 903         
00035.M2TS      3:00:40.625    0:05:35.666    1 194 964 992  28 480         
00036.M2TS      3:06:16.291    0:06:32.000    1 393 471 488  28 438         
00037.M2TS      3:12:48.291    0:05:04.750    1 077 657 600  28 290         
00038.M2TS      3:17:53.041    0:05:53.750    1 257 086 976  28 429         
00039.M2TS      3:23:46.791    0:07:14.375    1 545 357 312  28 461         
00040.M2TS      3:31:01.166    0:07:39.958    1 697 445 888  29 523         
00041.M2TS      3:38:41.125    0:05:01.208    1 072 257 024  28 479         
00042.M2TS      3:43:42.333    0:04:01.500    858 759 168    28 448         
00043.M2TS      3:47:43.833    0:02:47.916    596 502 528    28 419       


Image
Image
Image
Image


2GB LINKS


Code: Select all
http://www.heroupload.us/7e4fff6afb0c1f65/Hits.Of.Lata.Vol-1.2018.BD50-DDR.part01.rar
http://www.heroupload.us/778b2d6abdbceeb0/Hits.Of.Lata.Vol-1.2018.BD50-DDR.part02.rar
http://www.heroupload.us/cbcac7171e65ff38/Hits.Of.Lata.Vol-1.2018.BD50-DDR.part03.rar
http://www.heroupload.us/ac20cf5a10b2c780/Hits.Of.Lata.Vol-1.2018.BD50-DDR.part04.rar
http://www.heroupload.us/0f5a696f1def1b28/Hits.Of.Lata.Vol-1.2018.BD50-DDR.part05.rar
http://www.heroupload.us/8297a908f108b246/Hits.Of.Lata.Vol-1.2018.BD50-DDR.part06.rar
http://www.heroupload.us/81803defe9800092/Hits.Of.Lata.Vol-1.2018.BD50-DDR.part07.rar
http://www.heroupload.us/5ee6399453b5f926/Hits.Of.Lata.Vol-1.2018.BD50-DDR.part08.rar
http://www.heroupload.us/09de4b97333b147c/Hits.Of.Lata.Vol-1.2018.BD50-DDR.part09.rar
http://www.heroupload.us/8c9809c7e78317a3/Hits.Of.Lata.Vol-1.2018.BD50-DDR.part10.rar
http://www.heroupload.us/f2a377be409c6321/Hits.Of.Lata.Vol-1.2018.BD50-DDR.part11.rar
http://www.heroupload.us/d8049d7fa4ef2bb1/Hits.Of.Lata.Vol-1.2018.BD50-DDR.part12.rar
http://www.heroupload.us/7d8c727085f51181/Hits.Of.Lata.Vol-1.2018.BD50-DDR.part13.rar
http://www.heroupload.us/4311b2b64d7da615/Hits.Of.Lata.Vol-1.2018.BD50-DDR.part14.rar
http://www.heroupload.us/36d6879ecad547a0/Hits.Of.Lata.Vol-1.2018.BD50-DDR.part15.rar
http://www.heroupload.us/5fd77ca53227e5c0/Hits.Of.Lata.Vol-1.2018.BD50-DDR.part16.rar
http://www.heroupload.us/bff4564449de82ca/Hits.Of.Lata.Vol-1.2018.BD50-DDR.part17.rar
http://www.heroupload.us/86b50965bf31de8d/Hits.Of.Lata.Vol-1.2018.BD50-DDR.part18.rar
http://www.heroupload.us/c3a08d73ae13fce7/Hits.Of.Lata.Vol-1.2018.BD50-DDR.part19.rar
http://www.heroupload.us/bb003f33def398bd/Hits.Of.Lata.Vol-1.2018.BD50-DDR.part20.rar
http://www.heroupload.us/0afc9e27ee348112/Hits.Of.Lata.Vol-1.2018.BD50-DDR.part21.rar
http://www.heroupload.us/491af932f5237e56/Hits.Of.Lata.Vol-1.2018.BD50-DDR.part22.rar
http://www.heroupload.us/d17e80f3dbe44261/Hits.Of.Lata.Vol-1.2018.BD50-DDR.part23.rar
http://www.heroupload.us/e511f64c24531b39/Hits.Of.Lata.Vol-1.2018.BD50-DDR.part24.rar


Code: Select all
http://filefloater.com/acl/Hits.Of.Lata.Vol-1.2018.BD50-DDR.part01.rar
http://filefloater.com/acn/Hits.Of.Lata.Vol-1.2018.BD50-DDR.part02.rar
http://filefloater.com/acp/Hits.Of.Lata.Vol-1.2018.BD50-DDR.part03.rar
http://filefloater.com/acr/Hits.Of.Lata.Vol-1.2018.BD50-DDR.part04.rar
http://filefloater.com/acu/Hits.Of.Lata.Vol-1.2018.BD50-DDR.part05.rar
http://filefloater.com/acw/Hits.Of.Lata.Vol-1.2018.BD50-DDR.part06.rar
http://filefloater.com/acy/Hits.Of.Lata.Vol-1.2018.BD50-DDR.part07.rar
http://filefloater.com/501/Hits.Of.Lata.Vol-1.2018.BD50-DDR.part08.rar
http://filefloater.com/503/Hits.Of.Lata.Vol-1.2018.BD50-DDR.part09.rar
http://filefloater.com/505/Hits.Of.Lata.Vol-1.2018.BD50-DDR.part10.rar
http://filefloater.com/507/Hits.Of.Lata.Vol-1.2018.BD50-DDR.part11.rar
http://filefloater.com/509/Hits.Of.Lata.Vol-1.2018.BD50-DDR.part12.rar
http://filefloater.com/50b/Hits.Of.Lata.Vol-1.2018.BD50-DDR.part13.rar
http://filefloater.com/50d/Hits.Of.Lata.Vol-1.2018.BD50-DDR.part14.rar
http://filefloater.com/50f/Hits.Of.Lata.Vol-1.2018.BD50-DDR.part15.rar
http://filefloater.com/50h/Hits.Of.Lata.Vol-1.2018.BD50-DDR.part16.rar
http://filefloater.com/50j/Hits.Of.Lata.Vol-1.2018.BD50-DDR.part17.rar
http://filefloater.com/50l/Hits.Of.Lata.Vol-1.2018.BD50-DDR.part18.rar
http://filefloater.com/50m/Hits.Of.Lata.Vol-1.2018.BD50-DDR.part19.rar
http://filefloater.com/50n/Hits.Of.Lata.Vol-1.2018.BD50-DDR.part20.rar
http://filefloater.com/50o/Hits.Of.Lata.Vol-1.2018.BD50-DDR.part21.rar
http://filefloater.com/50p/Hits.Of.Lata.Vol-1.2018.BD50-DDR.part22.rar
http://filefloater.com/50q/Hits.Of.Lata.Vol-1.2018.BD50-DDR.part23.rar
http://filefloater.com/50r/Hits.Of.Lata.Vol-1.2018.BD50-DDR.part24.rar
wroser
Emperor Of Warez
Emperor Of Warez
 
Posts: 3559
Joined: Sun Jun 03, 2012 7:28 pm

Return to Music Videos

Who is online

Users browsing this forum: No registered users and 12 guests