It is currently Wed Sep 26, 2018 2:00 am Advanced search

uploadGIG.com Premium
Download Fortune | DDLPal Downloads | Crack Download | Download Serial | Warez Download | Warez Download | Download Serial | Download Warez | WarezKeeper | Download Serial Crack | Download File Crack | Full Downloads

Hits Of Lata Vol-2 (2018) 1080p Blu-ray AVC TrueHD 5.1-DDR E

Download all your latest music videos tracks from your favorite artist, genre, movie... etc

Hits Of Lata Vol-2 (2018) 1080p Blu-ray AVC TrueHD 5.1-DDR E

Postby wroser » Thu Mar 22, 2018 3:21 pm

Image






Code: Select all
Disc Size:      48 980 343 663 bytes
Protection:    AACS
BD-Java:        No
BDInfo:        0.5.4

PLAYLIST REPORT:

Name:                  00045.MPLS
Length:                3:45:49 (h:m:s)
Size:                  48 376 565 760 bytes
Total Bitrate:          28,56 Mbps

VIDEO:

Codec                  Bitrate            Description   
-----                  -------            -----------   
MPEG-4 AVC Video        22988 kbps          1080p / 24 fps / 16:9 / High Profile 4.1

AUDIO:

Codec                          Language        Bitrate        Description   
-----                          --------        -------        -----------   
Dolby TrueHD Audio              English        2314 kbps      5.1 / 48 kHz / 2314 kbps / 16-bit (AC3 Embedded: 5.1 / 48 kHz / 640 kbps)

FILES:

Name            Time In        Length          Size            Total Bitrate
----            -------        ------          ----            -------------
00000.M2TS      0:00:00.000    0:04:46.791    1 020 063 744  28 454         
00001.M2TS      0:04:46.791    0:06:16.916    1 341 917 184  28 482         
00002.M2TS      0:11:03.708    0:05:17.291    1 129 838 592  28 487         
00003.M2TS      0:16:20.999    0:05:38.250    1 282 240 512  30 326         
00004.M2TS      0:21:59.250    0:03:25.625    731 645 952    28 465         
00005.M2TS      0:25:24.875    0:04:42.708    1 006 571 520  28 484         
00006.M2TS      0:30:07.583    0:07:02.458    1 504 192 512  28 485         
00045.M2TS      0:37:10.041    0:04:02.416    855 859 200    28 244         
00007.M2TS      0:41:12.458    0:05:55.666    1 247 127 552  28 052         
00008.M2TS      0:47:08.125    0:04:47.833    1 024 444 416  28 473         
00009.M2TS      0:51:55.958    0:04:33.333    973 129 728    28 482         
00010.M2TS      0:56:29.291    0:03:24.416    728 162 304    28 497         
00011.M2TS      0:59:53.708    0:03:08.291    669 007 872    28 424         
00012.M2TS      1:03:02.000    0:05:01.083    1 138 538 496  30 252         
00013.M2TS      1:08:03.083    0:03:07.666    668 522 496    28 498         
00014.M2TS      1:11:10.750    0:03:59.583    851 073 024    28 418         
00015.M2TS      1:15:10.333    0:03:45.416    802 437 120    28 478         
00016.M2TS      1:18:55.750    0:04:43.958    1 010 620 416  28 472         
00017.M2TS      1:23:39.708    0:04:51.750    1 038 723 072  28 483         
00018.M2TS      1:28:31.458    0:04:48.166    1 016 236 032  28 212         
00019.M2TS      1:33:19.625    0:04:15.041    907 825 152    28 476         
00020.M2TS      1:37:34.666    0:06:25.833    1 373 177 856  28 472         
00021.M2TS      1:44:00.500    0:04:28.625    955 987 968    28 471         
00022.M2TS      1:48:29.125    0:03:54.875    834 963 456    28 439         
00023.M2TS      1:52:24.000    0:05:49.708    1 244 958 720  28 480         
00024.M2TS      1:58:13.708    0:04:33.166    971 286 528    28 445         
00025.M2TS      2:02:46.875    0:04:57.333    1 050 427 392  28 263         
00026.M2TS      2:07:44.208    0:04:43.416    1 008 973 824  28 480         
00027.M2TS      2:12:27.625    0:06:45.916    1 445 492 736  28 488         
00028.M2TS      2:19:13.541    0:06:13.208    1 328 652 288  28 481         
00029.M2TS      2:25:26.750    0:05:27.333    1 166 002 176  28 497         
00030.M2TS      2:30:54.083    0:04:54.333    1 046 243 328  28 437         
00031.M2TS      2:35:48.416    0:05:15.166    1 123 338 240  28 514         
00032.M2TS      2:41:03.583    0:04:53.666    1 046 157 312  28 499         
00033.M2TS      2:45:57.250    0:06:31.041    1 386 725 376  28 370         
00034.M2TS      2:52:28.291    0:04:48.958    1 029 199 872  28 494         
00035.M2TS      2:57:17.250    0:02:15.583    481 363 968    28 403         
00036.M2TS      2:59:32.833    0:04:28.416    956 497 920    28 508         
00037.M2TS      3:04:01.250    0:05:19.500    1 134 065 664  28 396         
00038.M2TS      3:09:20.750    0:04:34.500    977 491 968    28 488         
00039.M2TS      3:13:55.250    0:06:52.333    1 468 563 456  28 493         
00040.M2TS      3:20:47.583    0:05:00.791    1 071 575 040  28 500         
00041.M2TS      3:25:48.375    0:07:35.666    1 621 991 424  28 477         
00042.M2TS      3:33:24.041    0:08:39.125    1 847 949 312  28 478         
00043.M2TS      3:42:03.166    0:03:46.208    857 303 040    30 319           



2GB LINKS
Code: Select all
http://www.heroupload.us/539fbbfe63fe67f1/Hits.Of.Lata.Vol-2.2018.BD50-DDR.part01.rar
http://www.heroupload.us/824b09c3cec42770/Hits.Of.Lata.Vol-2.2018.BD50-DDR.part02.rar
http://www.heroupload.us/db4682aa861c3bd5/Hits.Of.Lata.Vol-2.2018.BD50-DDR.part03.rar
http://www.heroupload.us/e1f940c72af972ce/Hits.Of.Lata.Vol-2.2018.BD50-DDR.part04.rar
http://www.heroupload.us/96f949049d54ae3a/Hits.Of.Lata.Vol-2.2018.BD50-DDR.part05.rar
http://www.heroupload.us/2850ee506e2fe8d6/Hits.Of.Lata.Vol-2.2018.BD50-DDR.part06.rar
http://www.heroupload.us/ed3e164c1fbabb09/Hits.Of.Lata.Vol-2.2018.BD50-DDR.part07.rar
http://www.heroupload.us/8b8d4684066da7c1/Hits.Of.Lata.Vol-2.2018.BD50-DDR.part08.rar
http://www.heroupload.us/1c504262937df272/Hits.Of.Lata.Vol-2.2018.BD50-DDR.part09.rar
http://www.heroupload.us/ff6c23f901d8299f/Hits.Of.Lata.Vol-2.2018.BD50-DDR.part10.rar
http://www.heroupload.us/46ae34947b8a09ec/Hits.Of.Lata.Vol-2.2018.BD50-DDR.part11.rar
http://www.heroupload.us/9e7099a2ae3c194f/Hits.Of.Lata.Vol-2.2018.BD50-DDR.part12.rar
http://www.heroupload.us/09042aacb50e0bfb/Hits.Of.Lata.Vol-2.2018.BD50-DDR.part13.rar
http://www.heroupload.us/d147bfd6c1463058/Hits.Of.Lata.Vol-2.2018.BD50-DDR.part14.rar
http://www.heroupload.us/6c03e6d7b22a692e/Hits.Of.Lata.Vol-2.2018.BD50-DDR.part15.rar
http://www.heroupload.us/f231d46f43cd03c3/Hits.Of.Lata.Vol-2.2018.BD50-DDR.part16.rar
http://www.heroupload.us/02a7f71713c4d754/Hits.Of.Lata.Vol-2.2018.BD50-DDR.part17.rar
http://www.heroupload.us/3c4b522727870a83/Hits.Of.Lata.Vol-2.2018.BD50-DDR.part18.rar
http://www.heroupload.us/0e53d36adf70a1b6/Hits.Of.Lata.Vol-2.2018.BD50-DDR.part19.rar
http://www.heroupload.us/60d6a4b4e63b98d3/Hits.Of.Lata.Vol-2.2018.BD50-DDR.part20.rar
http://www.heroupload.us/e8b820406c79998b/Hits.Of.Lata.Vol-2.2018.BD50-DDR.part21.rar
http://www.heroupload.us/93545b614c875afb/Hits.Of.Lata.Vol-2.2018.BD50-DDR.part22.rar
http://www.heroupload.us/9dd93d3d1bc24354/Hits.Of.Lata.Vol-2.2018.BD50-DDR.part23.rar


Code: Select all
http://filefloater.com/50s/Hits.Of.Lata.Vol-2.2018.BD50-DDR.part01.rar
http://filefloater.com/50t/Hits.Of.Lata.Vol-2.2018.BD50-DDR.part02.rar
http://filefloater.com/50u/Hits.Of.Lata.Vol-2.2018.BD50-DDR.part03.rar
http://filefloater.com/50v/Hits.Of.Lata.Vol-2.2018.BD50-DDR.part04.rar
http://filefloater.com/50w/Hits.Of.Lata.Vol-2.2018.BD50-DDR.part05.rar
http://filefloater.com/50x/Hits.Of.Lata.Vol-2.2018.BD50-DDR.part06.rar
http://filefloater.com/50y/Hits.Of.Lata.Vol-2.2018.BD50-DDR.part07.rar
http://filefloater.com/50z/Hits.Of.Lata.Vol-2.2018.BD50-DDR.part08.rar
http://filefloater.com/ada/Hits.Of.Lata.Vol-2.2018.BD50-DDR.part09.rar
http://filefloater.com/adb/Hits.Of.Lata.Vol-2.2018.BD50-DDR.part10.rar
http://filefloater.com/adc/Hits.Of.Lata.Vol-2.2018.BD50-DDR.part11.rar
http://filefloater.com/add/Hits.Of.Lata.Vol-2.2018.BD50-DDR.part12.rar
http://filefloater.com/ade/Hits.Of.Lata.Vol-2.2018.BD50-DDR.part13.rar
http://filefloater.com/adf/Hits.Of.Lata.Vol-2.2018.BD50-DDR.part14.rar
http://filefloater.com/adg/Hits.Of.Lata.Vol-2.2018.BD50-DDR.part15.rar
http://filefloater.com/adh/Hits.Of.Lata.Vol-2.2018.BD50-DDR.part16.rar
http://filefloater.com/adi/Hits.Of.Lata.Vol-2.2018.BD50-DDR.part17.rar
http://filefloater.com/adj/Hits.Of.Lata.Vol-2.2018.BD50-DDR.part18.rar
http://filefloater.com/adk/Hits.Of.Lata.Vol-2.2018.BD50-DDR.part19.rar
http://filefloater.com/adl/Hits.Of.Lata.Vol-2.2018.BD50-DDR.part20.rar
http://filefloater.com/adm/Hits.Of.Lata.Vol-2.2018.BD50-DDR.part21.rar
http://filefloater.com/adn/Hits.Of.Lata.Vol-2.2018.BD50-DDR.part22.rar
http://filefloater.com/ado/Hits.Of.Lata.Vol-2.2018.BD50-DDR.part23.rar
wroser
Lord Of Warez
Lord Of Warez
 
Posts: 3337
Joined: Sun Jun 03, 2012 7:28 pm

Return to Music Videos

Who is online

Users browsing this forum: No registered users and 9 guests